Темный рыцарь / The Dark Knight (2008) UHD BDRemux 2160p | 4K | HDR | Dolby Vision Profile 8 | IMAX | D, P, A

Будь Первым!

Название: Темный рыцарь
Оригинальное название: The Dark Knight
Год выхода: 2008
Жанр: Фантастика, боевик, триллер, криминал, драма
Режиссер: Кристофер Нолан
В ролях: Кристиан Бэйл, Хит Леджер, Аарон Экхарт, Мэгги Джилленхол, Гари Олдман, Майкл Кейн, Морган Фриман, Чин Хань, Нестор Карбонелл, Эрик Робертс

О фильме:
Бэтмен поднимает ставки в войне с криминалом. С помощью лейтенанта Джима Гордона и прокурора Харви Дента он намерен очистить улицы от преступности, отравляющей город. Сотрудничество оказывается эффективным, но скоро они обнаружат себя посреди хаоса, развязанного восходящим криминальным гением, известным испуганным горожанам под именем Джокер.

[url=https://www.imdb.com/title/tt0468569/]Страна: США, Великобритания
Студия: DC Comics, Legendary Pictures, Syncopy, Warner Bros. Pictures Co.
Продолжительность: 02:32:12
Перевод: Дублированный, профессиональный многоголосый, авторский одноголосый

Файл
Формат: MKV
Кодек: H.265
Качество: UHD BDRemux 2160p[HYBRYD]
Видео: HEVC HDR, Dolby Vision Profile 8, 47,1 Mбит/с, 3840x2160, 23.976 кадр/с
Звук:
Аудио #1 Русский: AC3, 48.0 kHz, 5.1 ch, 640 Kbps [Дублированный]
Аудио #2 Русский: AC3, 48.0 kHz, 5.1 ch, 448 Kbps [Кравец]
Аудио #3 Русский: DTS-HD MA, 48.0 kHz, 5.1 ch, 2212 Kbps [AVO, А.Гаврилов]
Аудио #4 Русский: DTS-HD MA, 48.0 kHz, 5.1 ch, 2211 Kbps [AVO, Ю.Сербин]
Аудио #5 Русский: DTS-HD MA, 48.0 kHz, 5.1 ch, 2225 Kbps [AVO, Ю.Живов]
Аудио #6 Русский: DTS-HD MA, 48.0 kHz, 5.1 ch, 2213 Kbps [AVO, Д.Есарев]
Аудио #7 Русский: AC3, 48.0 kHz, 5.1 ch, 384 Kbps [Д.Чадов по переводу Д. Пучкова]
Аудио #8 Украинский: AC3, 48.0 kHz, 5.1 ch, 448 Kbps [Дублированный]
Аудио #9 English: DTS-HD MA, 48.0 kHz, 5.1 ch, 3814 Kbps
Субтитры: Русские(forced, полные, Гоблин, Воронин), английские(Full, SDH)

Примечание: Гибридный релиз получен слиянием UHD BDRemux HDR + Web-DL 2160p Dolby vision RPU

Дополнительная информация:
Данный вид релизов в MKV сделан в 8-м профиле Dolby Vision для воспроизведении на устройствах с поддержкой DV. Протестировано на тв-боксах Nvidia Shield 2019, Zidoo Z1000 Pro, Ugoos AM6+, TiVo Stream 4K. Не точно подтверждено воспроизведение на телевизорах Sony XG/XH и Phillips. На устройствах без поддержки Dolby Vision будет играть обычный HDR10.
Программные плееры для воспроизведения в DV(на поддерживаемых устройствах): Vimu Player 8.8.8(и выше), Kodi 19(специальная сборка с поддержкой DV), ExoPlayer, JustPlayer.

[spoiler=Mediainfo]
Общее
Уникальный идентификатор : 228535407121827946668639160200090948014 (0xABEE518231E1344DB0716ECCC02D11AE)
Полное имя : D:Download TorrentsThe.Dark.Knight.2008.UHD.BDRemux.2160p.DoVi.HYBRID.by.DVT.mkv
Формат : Matroska
Версия формата : Version 4
Размер файла : 65,6 Гбайт
Продолжительность : 2 ч. 32 м.
Режим общего битрейта : Переменный
Общий поток : 61,7 Мбит/сек
Название фильма : The Dark Knight (2008) - Release by Dolby Vision Torrents
Дата кодирования : UTC 2021-08-12 18:30:09
Программа кодирования : mkvmerge v60.0.0 ('Are We Copies?') 64-bit
Библиотека кодирования : libebml v1.4.2 + libmatroska v1.6.4
IMDB : tt0468569
TMDB : movie/155

Видео
Идентификатор : 1
Формат : HEVC
Формат/Информация : High Efficiency Video Coding
Профиль формата : Main [email protected]@High
HDR format : Dolby Vision, Version 1.0, dvhe.08.06, BL+RPU, HDR10 compatible / SMPTE ST 2086, HDR10 compatible
Идентификатор кодека : V_MPEGH/ISO/HEVC
Продолжительность : 2 ч. 32 м.
Битрейт : 47,1 Мбит/сек
Ширина : 3 840 пикселей
Высота : 2 160 пикселей
Соотношение сторон : 16:9
Режим частоты кадров : Постоянный
Частота кадров : 23,976 (24000/1001) кадра/сек
Цветовое пространство : YUV
Субдискретизация насыщенности : 4:2:0 (Type 2)
Битовая глубина : 10 бит
Бит/(Пиксели*Кадры) : 0.237
Размер потока : 50,1 Гбайт (76%)
Заголовок : The Dark Knight (2008)
Язык : English
Default : Да
Forced : Нет
Цветовой диапазон : Limited
Основные цвета : BT.2020
Характеристики трансфера : PQ
Коэффициенты матрицы : BT.2020 non-constant
Mastering display color primaries : Display P3
Mastering display luminance : min: 0.0050 cd/m2, max: 4000 cd/m2
Maximum Content Light Level : 1002 cd/m2
Maximum Frame-Average Light Level : 225 cd/m2

Аудио #1
Идентификатор : 2
Формат : AC-3
Формат/Информация : Audio Coding 3
Коммерческое название : Dolby Digital
Идентификатор кодека : A_AC3
Продолжительность : 2 ч. 32 м.
Вид битрейта : Постоянный
Битрейт : 640 Кбит/сек
Каналы : 6 каналов
Channel layout : L R C LFE Ls Rs
Частота : 48,0 КГц
Частота кадров : 31,250 кадров/сек (1536 SPF)
Метод сжатия : С потерями
Размер потока : 697 Мбайт (1%)
Заголовок : Дубляж - AC3 5.1
Язык : Russian
Service kind : Complete Main
Default : Да
Forced : Нет

Аудио #2
Идентификатор : 3
Формат : AC-3
Формат/Информация : Audio Coding 3
Коммерческое название : Dolby Digital
Идентификатор кодека : A_AC3
Продолжительность : 2 ч. 32 м.
Вид битрейта : Постоянный
Битрейт : 448 Кбит/сек
Каналы : 6 каналов
Channel layout : L R C LFE Ls Rs
Частота : 48,0 КГц
Частота кадров : 31,250 кадров/сек (1536 SPF)
Метод сжатия : С потерями
Размер потока : 488 Мбайт (1%)
Заголовок : Кравец - AC3 5.1
Язык : Russian
Service kind : Complete Main
Default : Нет
Forced : Нет

Аудио #3
Идентификатор : 4
Формат : DTS XLL
Формат/Информация : Digital Theater Systems
Коммерческое название : DTS-HD Master Audio
Идентификатор кодека : A_DTS
Продолжительность : 2 ч. 32 м.
Вид битрейта : Переменный
Битрейт : 2 212 Кбит/сек
Каналы : 6 каналов
Channel layout : C L R Ls Rs LFE
Частота : 48,0 КГц
Частота кадров : 93,750 кадра/сек (512 SPF)
Битовая глубина : 16 бит
Метод сжатия : Без потерь
Размер потока : 2,35 Гбайт (4%)
Заголовок : А.Гаврилов - DTS HD-MA 5.1
Язык : Russian
Default : Нет
Forced : Нет

Аудио #4
Идентификатор : 5
Формат : DTS XLL
Формат/Информация : Digital Theater Systems
Коммерческое название : DTS-HD Master Audio
Идентификатор кодека : A_DTS
Продолжительность : 2 ч. 32 м.
Вид битрейта : Переменный
Битрейт : 2 211 Кбит/сек
Каналы : 6 каналов
Channel layout : C L R Ls Rs LFE
Частота : 48,0 КГц
Частота кадров : 93,750 кадра/сек (512 SPF)
Битовая глубина : 16 бит
Метод сжатия : Без потерь
Размер потока : 2,35 Гбайт (4%)
Заголовок : Ю.Сербин - DTS HD-MA 5.1
Язык : Russian
Default : Нет
Forced : Нет

Аудио #5
Идентификатор : 6
Формат : DTS XLL
Формат/Информация : Digital Theater Systems
Коммерческое название : DTS-HD Master Audio
Идентификатор кодека : A_DTS
Продолжительность : 2 ч. 32 м.
Вид битрейта : Переменный
Битрейт : 2 225 Кбит/сек
Каналы : 6 каналов
Channel layout : C L R Ls Rs LFE
Частота : 48,0 КГц
Частота кадров : 93,750 кадра/сек (512 SPF)
Битовая глубина : 16 бит
Метод сжатия : Без потерь
Размер потока : 2,37 Гбайт (4%)
Заголовок : Ю.Живов - DTS HD-MA 5.1
Язык : Russian
Default : Нет
Forced : Нет

Аудио #6
Идентификатор : 7
Формат : DTS XLL
Формат/Информация : Digital Theater Systems
Коммерческое название : DTS-HD Master Audio
Идентификатор кодека : A_DTS
Продолжительность : 2 ч. 32 м.
Вид битрейта : Переменный
Битрейт : 2 213 Кбит/сек
Каналы : 6 каналов
Channel layout : C L R Ls Rs LFE
Частота : 48,0 КГц
Частота кадров : 93,750 кадра/сек (512 SPF)
Битовая глубина : 16 бит
Метод сжатия : Без потерь
Размер потока : 2,35 Гбайт (4%)
Заголовок : Д.Есарев - DTS HD-MA 5.1
Язык : Russian
Default : Нет
Forced : Нет

Аудио #7
Идентификатор : 8
Формат : AC-3
Формат/Информация : Audio Coding 3
Коммерческое название : Dolby Digital
Идентификатор кодека : A_AC3
Продолжительность : 2 ч. 32 м.
Вид битрейта : Постоянный
Битрейт : 384 Кбит/сек
Каналы : 6 каналов
Channel layout : L R C LFE Ls Rs
Частота : 48,0 КГц
Частота кадров : 31,250 кадров/сек (1536 SPF)
Метод сжатия : С потерями
Размер потока : 418 Мбайт (1%)
Заголовок : Чадов - AC3 5.1
Язык : Russian
Service kind : Complete Main
Default : Нет
Forced : Нет

Аудио #8
Идентификатор : 9
Формат : AC-3
Формат/Информация : Audio Coding 3
Коммерческое название : Dolby Digital
Идентификатор кодека : A_AC3
Продолжительность : 2 ч. 32 м.
Вид битрейта : Постоянный
Битрейт : 448 Кбит/сек
Каналы : 6 каналов
Channel layout : L R C LFE Ls Rs
Частота : 48,0 КГц
Частота кадров : 31,250 кадров/сек (1536 SPF)
Метод сжатия : С потерями
Размер потока : 488 Мбайт (1%)
Заголовок : Дубляж - AC3 5.1
Язык : Ukrainian
Service kind : Complete Main
Default : Нет
Forced : Нет

Аудио #9
Идентификатор : 10
Формат : DTS XLL
Формат/Информация : Digital Theater Systems
Коммерческое название : DTS-HD Master Audio
Идентификатор кодека : A_DTS
Продолжительность : 2 ч. 32 м.
Вид битрейта : Переменный
Битрейт : 3 814 Кбит/сек
Каналы : 6 каналов
Channel layout : C L R Ls Rs LFE
Частота : 48,0 КГц
Частота кадров : 93,750 кадра/сек (512 SPF)
Битовая глубина : 24 бит
Метод сжатия : Без потерь
Размер потока : 4,06 Гбайт (6%)
Заголовок : DTS-HD MA 5.1
Язык : English
Default : Нет
Forced : Нет

Текст #1
Идентификатор : 11
Формат : UTF-8
Идентификатор кодека : S_TEXT/UTF8
Идентификатор кодека/Информация : UTF-8 Plain Text
Продолжительность : 2 ч. 23 м.
Битрейт : 1 бит/сек
Count of elements : 24
Размер потока : 1,06 Кбайт (0%)
Заголовок : Forced
Язык : Russian
Default : Да
Forced : Да

Текст #2
Идентификатор : 12
Формат : UTF-8
Идентификатор кодека : S_TEXT/UTF8
Идентификатор кодека/Информация : UTF-8 Plain Text
Продолжительность : 2 ч. 30 м.
Битрейт : 97 бит/сек
Count of elements : 1867
Размер потока : 107 Кбайт (0%)
Заголовок : Full
Язык : Russian
Default : Нет
Forced : Нет

Текст #3
Идентификатор : 13
Формат : UTF-8
Идентификатор кодека : S_TEXT/UTF8
Идентификатор кодека/Информация : UTF-8 Plain Text
Продолжительность : 2 ч. 24 м.
Битрейт : 110 бит/сек
Count of elements : 1898
Размер потока : 117 Кбайт (0%)
Заголовок : Е. Воронин
Язык : Russian
Default : Нет
Forced : Нет

Текст #4
Идентификатор : 14
Формат : UTF-8
Идентификатор кодека : S_TEXT/UTF8
Идентификатор кодека/Информация : UTF-8 Plain Text
Продолжительность : 2 ч. 22 м.
Битрейт : 105 бит/сек
Count of elements : 1793
Размер потока : 110 Кбайт (0%)
Заголовок : Гоблин
Язык : Russian
Default : Нет
Forced : Нет

Текст #5
Идентификатор : 15
Формат : UTF-8
Идентификатор кодека : S_TEXT/UTF8
Идентификатор кодека/Информация : UTF-8 Plain Text
Продолжительность : 2 ч. 22 м.
Битрейт : 64 бит/сек
Count of elements : 1884
Размер потока : 67,4 Кбайт (0%)
Заголовок : Full
Язык : English
Default : Нет
Forced : Нет

Текст #6
Идентификатор : 16
Формат : UTF-8
Идентификатор кодека : S_TEXT/UTF8
Идентификатор кодека/Информация : UTF-8 Plain Text
Продолжительность : 2 ч. 22 м.
Битрейт : 70 бит/сек
Count of elements : 2007
Размер потока : 73,7 Кбайт (0%)
Заголовок : Full SDH
Язык : English
Default : Нет
Forced : Нет

Меню
00:00:00.000 : No Rules
00:06:25.927 : Dishonor Guard
00:10:36.135 : Somebody with Access
00:13:52.540 : Hero with a Face
00:17:54.156 : Men of Their Word
00:21:39.298 : Why So Serious?
00:26:09.985 : Kill the Batman
00:29:36.233 : Protector's Mantle
00:31:42.442 : Last Game in Town
00:37:49.017 : Unknown Limits
00:43:34.028 : Robbery Gone Stranger
00:46:39.505 : Right Choice
00:48:57.726 : Watch the World Burn
00:53:19.405 : Your Plan Is Blackmail?
00:57:15.599 : I Am the Batman
00:59:26.313 : Hong Kong Holiday
01:03:59.544 : Tonight's Entertainment
01:08:23.516 : Landing Lau
01:10:48.286 : Intimidate Mode
01:14:24.877 : Trip to Country
01:18:05.598 : Bat-Pod Faceoff
01:22:22.396 : We Got Him
01:24:48.542 : Good Cop, Bad Cop
01:30:48.401 : Two-Way Race
01:34:04.931 : Burned Down
01:39:57.742 : Harvey Two-Face
01:42:05.453 : Better Class of Criminal
01:44:59.877 : Watch Out
01:47:00.831 : Agent of Chaos
01:51:09.872 : Hospital Boom
01:54:14.598 : Too Much Power
01:57:03.975 : Unlucky
02:00:14.207 : Ferry Scary
02:03:37.535 : Prewitt Building Siege
02:09:07.573 : Verge of Fireworks
02:12:27.273 : Battle for Gotham's Soul
02:15:22.740 : One Pointing the Gun
02:19:58.640 : Dark Knight
02:24:26.658 : End Credits
[/spoiler]

[spoiler=Скриншоты]
[url=https://imageban.ru/show/2021/08/13/325d964471eb36f3a729dfca5114f908/jpg]Релиз от: Dolby Vision Torrents

Видео и Фото

Смотреть онлайн

Торрент файлы (Torrent files)

Отзывы